1. Este site usa cookies. Ao continuar a usar este site está a concordar com o nosso uso de cookies. Saber Mais.

Cue Sheets - Dúvida

Discussão em 'Dúvidas e Suporte Técnico PC' iniciada por nunovski, 12 de Março de 2007. (Respostas: 1; Visualizações: 456)

  1. nunovski

    nunovski I'm cool cuz I Fold

    Fiz o download de um live set do Armin van Buuren, o episódio 291 do A State Of Trance. Estava agora a navegar e encontrei uma cue sheet. Algo deste género:

    Código:
     PERFORMER "Armin van Buuren"
    TITLE "A State of Trance Episode 291 (2007-03-08)"
    FILE "01_armin_van_buuren_-_a_state_of_trance_291_(di.fm)_03-08-2007-tt.mp3" MP3
      TRACK 01 AUDIO
        PERFORMER "A State of Trance"
        TITLE "Intro"
        INDEX 01 00:00:00
      TRACK 02 AUDIO
        PERFORMER "Jonas Steur feat. Jennifer Rene"
        TITLE "Falling Into Pieces"
        INDEX 01 00:22:01
      TRACK 03 AUDIO
        PERFORMER "Alex Bartlett"
        TITLE "Touch The Sun (Rank 1 Remix)"
        INDEX 01 07:09:66
      TRACK 04 AUDIO
        PERFORMER "Cerf, Mitiska & Jaren"
        TITLE "Light The Skies (Retrobyte's Light The Sidechain Mix)"
    ...
    Queria saber como usar isto, é que realmente dava jeito separar as músicas, visto que neste momento tenho um só MP3 de 2h e pouco.

    Cumprimentos
     
  2. apoc

    apoc Power Member

    procura por cue splitter
     

Partilhar esta Página